Skip to main content

Backyard Tire Fire Live at Coconut Louie's on 2009-10-31




Disc 1 (75:49.51)
01. intro
02. Miss You
03. When The Whip Comes Down
04. Just My Imagination
05. Some Girls
06. Lies
07. Far Away Eyes
08. Respectable
09. Before They Make Me Run
10. Beast Of Burden
11. Shattered

Set II:
12. Jimmy & Bob & Jack
13. May The Sun Shine Down On You When I'm Gone
14. Thick Skin
15. He Heard Things
16. One Wrong Turn

Disc 2 (61:10.18)
17. Trying To Get Paid
18. Handle With Care
19. Lines
20. You've Got To Lose
21. Seasons Turn
22. F The CC
23. Anything To Pass The Time
24. Bums In The Sun
25. White On My Walls
26. Skin And Bones And Soul
27. Cinnamon Girl
28. Downtime
29. How In The Hell Did You Get Back Here?


Collection BackyardTireFire
Band/Artist Backyard Tire Fire
Date October 31, 2009
Venue Coconut Louie's
Location Bloomington IL

Source AKG C522S on stage > Grace V3 + SBD > Edirol R44
Lineage WAV > Audacity 1.2.6a > xACT 1.64 > FLAC level 8
Taped by Jason "Picklemic" Loomis of Team Pickle
Transferred by morst


Notes

Set I:
Rolling Stones - SOME GIRLS

Set II:
Backyard Tire Fire

SHNTOOL:
length expanded size cdr WAVE problems fmt ratio filename
0:42.32 7484108 B --- -- ---xx BTF2009-10-31-Pickle-MTX-d1t01.flac
4:41.41 49664876 B --- -- ---xx BTF2009-10-31-Pickle-MTX-d1t02.flac
5:18.07 56111708 B --- -- ---xx BTF2009-10-31-Pickle-MTX-d1t03.flac
5:37.69 59609132 B --- -- ---xx BTF2009-10-31-Pickle-MTX-d1t04.flac
5:52.07 62109308 B --- -- ---xx BTF2009-10-31-Pickle-MTX-d1t05.flac
6:35.49 69793292 B --- -- ---xx BTF2009-10-31-Pickle-MTX-d1t06.flac
5:08.64 54481772 B --- -- ---xx BTF2009-10-31-Pickle-MTX-d1t07.flac
4:47.06 50640956 B --- -- ---xx BTF2009-10-31-Pickle-MTX-d1t08.flac
5:17.33 55996460 B --- -- ---xx BTF2009-10-31-Pickle-MTX-d1t09.flac
5:02.14 53305772 B --- -- ---xx BTF2009-10-31-Pickle-MTX-d1t10.flac
4:07.36 43655516 B --- -- ---xx BTF2009-10-31-Pickle-MTX-d1t11.flac
7:01.65 74417324 B --- -- ---xx BTF2009-10-31-Pickle-MTX-d1t12.flac
2:59.67 31733228 B --- -- ---xx BTF2009-10-31-Pickle-MTX-d1t13.flac
4:24.73 46741340 B --- -- ---xx BTF2009-10-31-Pickle-MTX-d1t14.flac
2:37.69 27857132 B --- -- ---xx BTF2009-10-31-Pickle-MTX-d1t15.flac
5:34.19 58962332 B --- -- ---xx BTF2009-10-31-Pickle-MTX-d1t16.flac
3:39.13 38662220 B --- -- ---xx BTF2009-10-31-Pickle-MTX-d2t01.flac
4:16.22 45210188 B --- -- ---xx BTF2009-10-31-Pickle-MTX-d2t02.flac
2:51.67 30322028 B --- -- ---xx BTF2009-10-31-Pickle-MTX-d2t03.flac
5:09.67 54665228 B --- -- ---xx BTF2009-10-31-Pickle-MTX-d2t04.flac
6:57.74 73732892 B --- -- ---xx BTF2009-10-31-Pickle-MTX-d2t05.flac
4:42.13 49775420 B --- -- ---xx BTF2009-10-31-Pickle-MTX-d2t06.flac
3:44.73 39685340 B --- -- ---xx BTF2009-10-31-Pickle-MTX-d2t07.flac
5:00.10 52943564 B --- -- ---xx BTF2009-10-31-Pickle-MTX-d2t08.flac
4:34.67 48491228 B --- -- ---xx BTF2009-10-31-Pickle-MTX-d2t09.flac
5:33.18 58783580 B --- -- ---xx BTF2009-10-31-Pickle-MTX-d2t10.flac
4:46.34 50530412 B --- -- ---xx BTF2009-10-31-Pickle-MTX-d2t11.flac
3:53.49 41216492 B --- -- ---xx BTF2009-10-31-Pickle-MTX-d2t12.flac
5:59.36 63412316 B --- -- ---xx BTF2009-10-31-Pickle-MTX-d2t13.flac
136:59.69 1449995164 B 0.5297 (29 files)

-~-~-~-~-~-~-~-~-~-~-~-~-~-~-~-~-~-~-~-~-~-~-~-~-~-
A Team Pickle production in conjunction with
The Soundscape Preservation Society (Founded 1991)
http://www.iamtypingwithonefinger.com/SPS.html
-~-~-~-~-~-~-~-~-~-~-~-~-~-~-~-~-~-~-~-~-~-~-~-~-~-

Reviews

Reviewer: tirefirefan - - January 2, 2010
Subject: Never Fails
These cats always rock. This show was no exception.
Reviewer: Eric Simpson - - December 25, 2009
Subject: 8 brownies...
well, well, well....this show will forever be a favorite. Loomer and morst wore dresses the whole night, I only fer the Some Girls set. what can I say it is true, I ate 8 brownies...I had a great night. thanks again to Mr. Tim Kramp and his wife for letting Loomer and I stay at thier house. very nice Bloomington hospitality.
Download Options
732.4M
FLAC
42.3K
JPEG
103.6M
OGG VORBIS
7.7K
TEXT
59.0K
TORRENT
381.6M
VBR M3U
381.6M
VBR MP3
192.7M
VBR ZIP
Uploaded by
morst
on 11/20/2009
Views
1,359
Favorites
3
Reviews
2
PEOPLE ALSO FOUND
Backyard Tire Fire
by Backyard Tire Fire
470
0
2
( 2 reviews )
Source: AKG C522S > Grace V3 + SBD > Edirol R44
Backyard Tire Fire
by Backyard Tire Fire
389
1
0
Source: matrix
Backyard Tire Fire
by Backyard Tire Fire
2,394
1
0
Source: KM140's > Lunatec V3 > + SBD > Edirol R44 @24-bit/48kHz
Backyard Tire Fire
by Backyard Tire Fire
2,454
1
0
Source: Neumann KM140's > Beyer MV100 > Zoom H2 @24-bit/48kHz WAV, mics on 8' stand in back of room
Backyard Tire Fire
by Backyard Tire Fire
227
1
0
Source: SBD + The Pickle Mic > Grace V3 > Edirol R44 > WAV @24/48
Backyard Tire Fire
by Backyard Tire Fire
231
1
0
Source: Neumann KM140's > Marantz PMD661 (Oade mod) > WAV @24/48
Backyard Tire Fire
by Backyard Tire Fire
1,100
1
0
Backyard Tire Fire
by Backyard Tire Fire
2,103
1
0
Source: Neumann KM140's ORTF on tall stand at SBD > Grace V3 + Soundcraft GB8 SBD > Edirol R44
Backyard Tire Fire
by Backyard Tire Fire
2,523
1
2
( 2 reviews )
Source: AKG C522 m/s > Lunatec V3 + SBD > Edirol R44 > WAV @24-bit/48KHz
Backyard Tire Fire
by Backyard Tire Fire
370
1
1
( 1 reviews )
Source: Neumann KM140's > Beyer MV100 > Zoom H2 > WAV @24-bit/48kHz + SBD > Edirol R44 > Sony PCM-M1 > DAT @16-bit/48kHz KM140's ORTF, clamped to lighting rig, FoB, approx 10' from stage, 9' high